[mythtv] [PATCH] MPEG2->MPEG2 commercial cut (myth patch)

Geoffrey Hausheer ou401cru02 at sneakemail.com
Fri Jan 2 12:29:27 EST 2004


On Fri, 2 Jan 2004 10:24:19 -0500, "DBakker-at-arrayasolutions.com" said:
> I also tried with the -i option:
> 
> 
> # mythtranscode -i 1029_20040101190000_20040101193000.nuv 
> Input #0, mpeg, from '1029_20040101190000_20040101193000.nuv':
>   Stream #0.0: Video: mpeg2video, 720x480, 29.97 fps
>   Stream #0.1: Audio: mp2, 48000 Hz, stereo, 224 kb/s
> Output #0, vob, to '1029_20040101190000_20040101193000.nuv.tmp':
>   Stream #0.0: Video: mpeg2video, 720x480, 29.97 fps, q=2-31, 5048 kb/s
>   Stream #0.1: Audio: mp2, 48000 Hz, stereo, 224 kb/s
> Ran out of video buffers!
> 

I can't duplicate this problem so far.  How long does it go before it
dies?  What is the file size of the .tmp and the original?

I have used the same settings as you have, and my recordings seem to work
fine:
> ./mythtranscode -i ~/test1.mpg
Input #0, mpeg, from '/home/ghaushe/test1.mpg':
  Stream #0.0: Video: mpeg2video, 720x480, 29.97 fps
  Stream #0.1: Audio: mp2, 48000 Hz, stereo, 224 kb/s
Output #0, vob, to '/home/ghaushe/test1.mpg.tmp':
  Stream #0.0: Video: mpeg2video, 720x480, 29.97 fps, q=2-31, 6000 kb/s
  Stream #0.1: Audio: mp2, 48000 Hz, stereo, 224 kb/s
>

The easiest way for me to debug would be if I could get my hands on your
mpeg (or enough of it to cause the failure).  If that isn't realistic,
you can recompile mythtranscode after setting int mp2_debug = 2; on line
54 of mpeg2trans.cpp

then run:
mythtranscode -i 1029_20040101190000_20040101193000.nuv > log
and zip up and send me the log file. (it'll likely be large, but should
zip well)

.Geoff


More information about the mythtv-dev mailing list