[mythtv] Status on current SVN

Adam Egger mythtv2005 at bdam.de
Sat Dec 17 11:54:41 EST 2005


Hi devs,

My SVN builds look quite good at the moment so I think your todo list
for 0.19 isn't very long anymore. Isaac are you going to give us
translators approx. one week to bring the i18n files up to date again?

The only two problematic areas I see with today's svn are mpeg2fix and
the autoexpire feature for DVB.

The recording screen still shows me duplicate entries for all LiveTV
files, one for the dummy recording file and one for the real livetv
recording and autoexpire doesn't remove them at all.
The problem with duplicate entries for regular recordings doesn't
happen anymore, thank you Chris for fixing this.

Mpeg2fix doesn't work for my mpg files at all (DVB-t, Germany,
Debian). For most files it just doesn't put any output data into the
-o file (the file stays empty at 0 byte) and "-v all" just shows the
last lines from the following output forever:

mythtranscode -m -i /big/myth/record/4_20051216201300.mpg -o test.mpg -v all
2005-12-17 17:42:38.293 Using runtime prefix = /usr
2005-12-17 17:42:38.330 New DB connection, total: 1
2005-12-17 17:42:38.334 Enabled verbose msgs: all
2005-12-17 17:42:38.338 MSqlQuery: SELECT
recorded.chanid,starttime,endtime,title,
subtitle,description,channel.channum,
channel.callsign,channel.name,channel.commfree,
channel.outputfilters,seriesid,programid,filesize,
lastmodified,stars,previouslyshown,originalairdate,
hostname,recordid,transcoder,playgroup,
recorded.recpriority,progstart,progend,basename,recgroup FROM recorded
LEFT JOIN channel ON recorded.chanid = channel.chanid WHERE
recorded.chanid = '4' AND starttime = '2005-12-16T20:13:00' ;
2005-12-17 17:42:38.342 New DB connection, total: 2
2005-12-17 17:42:38.344 MSqlQuery: SELECT commflagged, cutlist,
autoexpire, editing, bookmark FROM recorded WHERE chanid = '4' AND
starttime = '2005-12-16T20:13:00' ;
2005-12-17 17:42:38.345 Transcoding from
/big/myth/record/4_20051216201300.mpg to test.mpg
2005-12-17 17:42:38.355 Opening /big/myth/record/4_20051216201300.mpg
[mpegts @ 0xb7631980]Parser not found for Codec Id: 94211 !
Input #0, mpegts, from '/big/myth/record/4_20051216201300.mpg':
  Duration: N/A, bitrate: N/A
  Stream #0.0[0x152](ger): Audio: mp2, 48000 Hz, stereo, 192 kb/s
  Stream #0.1[0x157]: Data: 0x0000
  Stream #0.2[0x151], 25.00 fps: Video: mpeg2video, yuv420p, 720x576, 15000 kb/s
Skipping unsupported codec 2
2005-12-17 17:42:38.413 unused:129 720x576 P:1080000 03:00:19:005 #:2
F:2 fl:636223529
2005-12-17 17:42:38.414 Dropping A packet from stream 0
2005-12-17 17:42:38.415 unused:24 720x576 P:1080000 #:0 F:2 fl:1709441067
2005-12-17 17:42:38.416 Dropping A packet from stream 0
2005-12-17 17:42:38.416 unused:24 720x576 P:1080000 #:1 F:2 fl:2246049835
2005-12-17 17:42:38.417 Dropping A packet from stream 0
2005-12-17 17:42:38.417 Dropping A packet from stream 0
2005-12-17 17:42:38.418 Dropping A packet from stream 0
2005-12-17 17:42:38.418 unused:24 720x576 P:1080000 #:5 F:2 fl:2246049834
2005-12-17 17:42:38.418 Dropping A packet from stream 0
2005-12-17 17:42:38.419 unused:24 720x576 P:1080000 #:3 F:2 fl:3320315947
2005-12-17 17:42:38.419 Dropping A packet from stream 0
2005-12-17 17:42:38.420 unused:24 720x576 P:1080000 #:4 F:2 fl:1709441067
2005-12-17 17:42:38.420 Dropping A packet from stream 0
2005-12-17 17:42:38.421 Dropping A packet from stream 0
2005-12-17 17:42:38.421 Dropping A packet from stream 0
2005-12-17 17:42:38.421 unused:24 720x576 P:1080000 #:8 F:2 fl:1709441066
2005-12-17 17:42:38.422 Dropping A packet from stream 0
2005-12-17 17:42:38.422 unused:24 720x576 P:1080000 #:6 F:2 fl:636223531
2005-12-17 17:42:38.423 Dropping A packet from stream 0
2005-12-17 17:42:38.423 unused:24 720x576 P:1080000 #:7 F:2 fl:3320315947
2005-12-17 17:42:38.424 Dropping A packet from stream 0
2005-12-17 17:42:38.424 Dropping A packet from stream 0
2005-12-17 17:42:38.424 Dropping A packet from stream 0
2005-12-17 17:42:38.425 unused:24 720x576 P:1080000 #:11 F:2 fl:3320315946
2005-12-17 17:42:38.425 Dropping A packet from stream 0
2005-12-17 17:42:38.426 Dropping A packet from stream 0
2005-12-17 17:42:38.426 unused:24 720x576 P:1080000 #:9 F:2 fl:2246049835
2005-12-17 17:42:38.426 Dropping A packet from stream 0
2005-12-17 17:42:38.428 unused:24 720x576 P:1080000 #:10 F:2 fl:636223531
2005-12-17 17:42:38.428 Dropping A packet from stream 0
2005-12-17 17:42:38.428 Dropping A packet from stream 0
2005-12-17 17:42:38.429 Dropping A packet from stream 0
2005-12-17 17:42:38.429 Dropping A packet from stream 0
2005-12-17 17:42:38.430 unused:129 720x576 P:1080000 03:00:19:017 #:2
F:2 fl:636223529
2005-12-17 17:42:38.430 #2 PTS:18:29:06.884 Delta: 0.0ms queue: 13
2005-12-17 17:42:38.431 #0 PTS:18:29:06.876 Delta: 8.18889ms queue: 2
2005-12-17 17:42:38.432 ptsIncrement: 3600 Frame #: 2 PTS-adjust: 18:29:06.696
2005-12-17 17:42:38.433 unused:24 720x576 P:1080000 #:0 F:2 fl:1709441067
2005-12-17 17:42:38.433 AUD #0: pts: 00:00:00.180
2005-12-17 17:42:38.434 Id:0 00:00:00.180 V:199 MP2: 199
2005-12-17 17:42:38.434 AUD #0: pts: 00:00:00.204
2005-12-17 17:42:38.434 Id:0 00:00:00.204 V:199 MP2: 198
2005-12-17 17:42:38.435 AUD #0: pts: 00:00:00.228
2005-12-17 17:42:38.435 Id:0 00:00:00.228 V:199 MP2: 197
2005-12-17 17:42:38.436 unused:24 720x576 P:1080000 #:1 F:2 fl:2246049835
2005-12-17 17:42:38.436 AUD #0: pts: 00:00:00.252
2005-12-17 17:42:38.437 Id:0 00:00:00.252 V:199 MP2: 196
2005-12-17 17:42:38.437 AUD #0: pts: 00:00:00.276
2005-12-17 17:42:38.438 Id:0 00:00:00.276 V:199 MP2: 195
2005-12-17 17:42:38.438 AUD #0: pts: 00:00:00.300
2005-12-17 17:42:38.438 Id:0 00:00:00.300 V:199 MP2: 194
2005-12-17 17:42:38.439 AUD #0: pts: 00:00:00.324
2005-12-17 17:42:38.439 Id:0 00:00:00.324 V:199 MP2: 193
2005-12-17 17:42:38.440 unused:24 720x576 P:1080000 #:5 F:2 fl:2246049834
2005-12-17 17:42:38.440 AUD #0: pts: 00:00:00.348
2005-12-17 17:42:38.441 Id:0 00:00:00.348 V:199 MP2: 192
2005-12-17 17:42:38.441 unused:24 720x576 P:1080000 #:3 F:2 fl:3320315947
2005-12-17 17:42:38.442 AUD #0: pts: 00:00:00.372
2005-12-17 17:42:38.442 Id:0 00:00:00.372 V:199 MP2: 191
2005-12-17 17:42:38.442 AUD #0: pts: 00:00:00.396
2005-12-17 17:42:38.443 Id:0 00:00:00.396 V:199 MP2: 190
2005-12-17 17:42:38.443 unused:24 720x576 P:1080000 #:4 F:2 fl:1709441067
2005-12-17 17:42:38.444 AUD #0: pts: 00:00:00.420
2005-12-17 17:42:38.444 Id:0 00:00:00.420 V:199 MP2: 189
2005-12-17 17:42:38.445 AUD #0: pts: 00:00:00.444
2005-12-17 17:42:38.445 Id:0 00:00:00.444 V:199 MP2: 188
2005-12-17 17:42:38.446 AUD #0: pts: 00:00:00.468
2005-12-17 17:42:38.450 Id:0 00:00:00.468 V:199 MP2: 187
2005-12-17 17:42:38.450 unused:24 720x576 P:1080000 #:8 F:2 fl:1709441066
2005-12-17 17:42:38.452 AUD #0: pts: 00:00:00.492
2005-12-17 17:42:38.452 Id:0 00:00:00.492 V:199 MP2: 186
2005-12-17 17:42:38.453 unused:24 720x576 P:1080000 #:6 F:2 fl:636223531
2005-12-17 17:42:38.453 AUD #0: pts: 00:00:00.516
2005-12-17 17:42:38.454 Id:0 00:00:00.516 V:199 MP2: 185
2005-12-17 17:42:38.454 unused:24 720x576 P:1080000 #:7 F:2 fl:3320315947
2005-12-17 17:42:38.455 AUD #0: pts: 00:00:00.540
2005-12-17 17:42:38.455 Id:0 00:00:00.540 V:199 MP2: 184
2005-12-17 17:42:38.455 AUD #0: pts: 00:00:00.564
2005-12-17 17:42:38.456 Id:0 00:00:00.564 V:199 MP2: 183
2005-12-17 17:42:38.456 AUD #0: pts: 00:00:00.588
2005-12-17 17:42:38.457 Id:0 00:00:00.588 V:199 MP2: 182
2005-12-17 17:42:38.457 unused:24 720x576 P:1080000 #:11 F:2 fl:3320315946
2005-12-17 17:42:38.458 unused:24 720x576 P:1080000 #:9 F:2 fl:2246049835
2005-12-17 17:42:38.458 AUD #0: pts: 00:00:00.612
2005-12-17 17:42:38.459 Id:0 00:00:00.612 V:199 MP2: 181
2005-12-17 17:42:38.459 unused:24 720x576 P:1080000 #:10 F:2 fl:636223531
2005-12-17 17:42:38.460 AUD #0: pts: 00:00:00.636
2005-12-17 17:42:38.460 Id:0 00:00:00.636 V:199 MP2: 180
2005-12-17 17:42:38.460 AUD #0: pts: 00:00:00.660
2005-12-17 17:42:38.461 Id:0 00:00:00.660 V:199 MP2: 179
2005-12-17 17:42:38.461 AUD #0: pts: 00:00:00.684
2005-12-17 17:42:38.462 Id:0 00:00:00.684 V:199 MP2: 178
2005-12-17 17:42:38.462 unused:129 720x576 P:1080000 03:00:20:004 #:2
F:2 fl:636223529
2005-12-17 17:42:38.463 VID: I #:2 nb: 2 pts: 00:00:00.188 dts: 00:00:00.068
2005-12-17 17:42:38.464 Id:2 00:00:00.188 V:199 MP2: 177
Mux rate: 15.44 Mbit/s
2005-12-17 17:42:38.465 Id:2 00:00:00.188 V:199 MP2: 177
2005-12-17 17:42:38.465 Id:2 00:00:00.188 V:199 MP2: 177
2005-12-17 17:42:38.465 Id:2 00:00:00.188 V:199 MP2: 177
2005-12-17 17:42:38.466 Id:2 00:00:00.188 V:199 MP2: 177
2005-12-17 17:42:38.466 Id:2 00:00:00.188 V:199 MP2: 177
2005-12-17 17:42:38.467 Id:2 00:00:00.188 V:199 MP2: 177
...

For some other files it fails with Deadlock detected. One buffer is
full when the other is empty! Aborting:

mythtranscode -m -i /big/myth/record/1065_20051210000000.mpg -o test.mpg -v all
2005-12-17 17:44:26.068 Using runtime prefix = /usr
2005-12-17 17:44:26.108 New DB connection, total: 1
2005-12-17 17:44:26.112 Enabled verbose msgs: all
2005-12-17 17:44:26.125 MSqlQuery: SELECT
recorded.chanid,starttime,endtime,title,
subtitle,description,channel.channum,
channel.callsign,channel.name,channel.commfree,
channel.outputfilters,seriesid,programid,filesize,
lastmodified,stars,previouslyshown,originalairdate,
hostname,recordid,transcoder,playgroup,
recorded.recpriority,progstart,progend,basename,recgroup FROM recorded
LEFT JOIN channel ON recorded.chanid = channel.chanid WHERE
recorded.chanid = '1065' AND starttime = '2005-12-10T00:00:00' ;
2005-12-17 17:44:26.136 New DB connection, total: 2
2005-12-17 17:44:26.138 MSqlQuery: SELECT commflagged, cutlist,
autoexpire, editing, bookmark FROM recorded WHERE chanid = '1065' AND
starttime = '2005-12-10T00:00:00' ;
2005-12-17 17:44:26.139 Transcoding from
/big/myth/record/1065_20051210000000.mpg to test.mpg
2005-12-17 17:44:26.165 Opening /big/myth/record/1065_20051210000000.mpg
[mpegts @ 0xb766b980]Parser not found for Codec Id: 94211 !
Input #0, mpegts, from '/big/myth/record/1065_20051210000000.mpg':
  Duration: N/A, bitrate: N/A
  Stream #0.0[0x191], 25.00 fps: Video: mpeg2video, yuv420p, 544x576, 7000 kb/s
  Stream #0.1[0x192](ger): Audio: mp2, 48000 Hz, stereo, 192 kb/s
  Stream #0.2[0x194]: Data: 0x0000
Skipping unsupported codec 2
2005-12-17 17:44:26.212 unused:115 544x576 P:1080000 14:19:09:006 #:2 F:2 fl:9
2005-12-17 17:44:26.213 unused:22 544x576 P:1080000 #:0 F:2 fl:11
2005-12-17 17:44:26.223 unused:22 544x576 P:1080000 #:1 F:2 fl:11
2005-12-17 17:44:26.224 Dropping A packet from stream 1
2005-12-17 17:44:26.224 Dropping A packet from stream 1
2005-12-17 17:44:26.225 Dropping A packet from stream 1
2005-12-17 17:44:26.225 unused:23 544x576 P:1080000 #:5 F:2 fl:10
2005-12-17 17:44:26.227 unused:22 544x576 P:1080000 #:3 F:2 fl:11
2005-12-17 17:44:26.228 Dropping A packet from stream 1
2005-12-17 17:44:26.228 Dropping A packet from stream 1
2005-12-17 17:44:26.229 Dropping A packet from stream 1
2005-12-17 17:44:26.229 unused:22 544x576 P:1080000 #:4 F:2 fl:11
2005-12-17 17:44:26.229 Dropping A packet from stream 1
2005-12-17 17:44:26.230 Dropping A packet from stream 1
2005-12-17 17:44:26.230 unused:23 544x576 P:1080000 #:8 F:2 fl:10
2005-12-17 17:44:26.231 unused:22 544x576 P:1080000 #:6 F:2 fl:11
2005-12-17 17:44:26.231 Dropping A packet from stream 1
2005-12-17 17:44:26.232 Dropping A packet from stream 1
2005-12-17 17:44:26.232 Dropping A packet from stream 1
2005-12-17 17:44:26.232 unused:22 544x576 P:1080000 #:7 F:2 fl:11
2005-12-17 17:44:26.233 Dropping A packet from stream 1
2005-12-17 17:44:26.233 unused:23 544x576 P:1080000 #:11 F:2 fl:10
2005-12-17 17:44:26.235 Dropping A packet from stream 1
2005-12-17 17:44:26.235 unused:22 544x576 P:1080000 #:9 F:2 fl:11
2005-12-17 17:44:26.236 Dropping A packet from stream 1
2005-12-17 17:44:26.236 #0 PTS:02:58:05.134 Delta: 0.0ms queue: 11
2005-12-17 17:44:26.237 #1 PTS:02:58:05.116 Delta: 18.2111ms queue: 2
2005-12-17 17:44:26.237 ptsIncrement: 3600 Frame #: 2 PTS-adjust: 02:58:04.936
2005-12-17 17:44:26.238 unused:22 544x576 P:1080000 #:10 F:2 fl:11
2005-12-17 17:44:26.238 unused:115 544x576 P:1080000 14:19:09:018 #:2 F:2 fl:9
2005-12-17 17:44:26.239 VID: I #:2 nb: 2 pts: 00:00:00.198 dts: 00:00:00.078
2005-12-17 17:44:26.240 Id:0 00:00:00.198 V:199 MP2: 199
2005-12-17 17:44:26.240 VID: B #:0 nb: 2 pts: 00:00:00.118 dts: 00:00:00.118
2005-12-17 17:44:26.241 Id:0 00:00:00.118 V:198 MP2: 199
2005-12-17 17:44:26.241 VID: B #:1 nb: 2 pts: 00:00:00.158 dts: 00:00:00.158
2005-12-17 17:44:26.242 Id:0 00:00:00.158 V:197 MP2: 199
2005-12-17 17:44:26.242 VID: P #:5 nb: 2 pts: 00:00:00.318 dts: 00:00:00.198
2005-12-17 17:44:26.243 Id:0 00:00:00.318 V:196 MP2: 199
Deadlock detected.  One buffer is full when
the other is empty!  Aborting

Regards,
Adam


More information about the mythtv-dev mailing list