[mythtv-users] livetv DirectFB errors with PVR350

Jarrod Gray grayjk at cs.rose-hulman.edu
Thu Apr 1 19:27:16 EST 2004


I get the following DirectFB error when trying to watch live tv with a
PVR350. I've built mythtv with directfb support and against qt/e.

2004-04-01 19:32:52 Connecting to backend server: 127.0.0.1:6543 (try 1 of 5)
2004-04-01 19:32:52 Using protocol version 4
2004-04-01 19:32:52 MainServer::HandleAnnounce Playback
2004-04-01 19:32:52 adding: localhost.localdomain as a client (events: 0)
2004-04-01 19:32:52 Getting next free recorder : -1
2004-04-01 19:32:52 Using protocol version 4
2004-04-01 19:32:52 Using protocol version 4
2004-04-01 19:32:52 MainServer::HandleAnnounce Playback
2004-04-01 19:32:52 adding: localhost.localdomain as a client (events: 1)
2004-04-01 19:32:52 MainServer::HandleAnnounce Playback
2004-04-01 19:32:52 adding: localhost.localdomain as a client (events: 0)
2004-04-01 19:32:52 MainServer::HandleAnnounce Playback
2004-04-01 19:32:52 adding: localhost.localdomain as a client (events: 0)
2004-04-01 19:32:52 adding: localhost.localdomain as a remote ringbuffer
2004-04-01 19:32:52 Changing from None to WatchingLiveTV
Input #0, mpeg, from 'rbuf://127.0.0.1:6543/mnt/store//ringbuf1.nuv':
  Stream #0.0: Video: mpeg2video, 480x480, 29.97 fps
  Stream #0.1: Audio: mp2, 48000 Hz, stereo, 384 kb/s
2004-04-01 19:32:54 Opening OSS audio device '/dev/dsp'.
2004-04-01 19:32:54 Audio fragment size: 4096

       ---------------------- DirectFB v0.9.20 ---------------------
             (c) 2000-2002  convergence integrated media GmbH
             (c) 2002-2003  convergence GmbH
        -----------------------------------------------------------

(*) Single Application Core. (with MMX support) (2004-03-26 00:25)
(*) DirectFB/misc/memcpy: using MMXEXT optimized memcpy()
(*) DirectFB/InputDevice: IMPS/2 Mouse 0.9 (convergence integrated media GmbH)
(*) DirectFB/InputDevice: LIRC Device 0.2 (convergence integrated media GmbH)
(*) DirectFB/InputDevice: Keyboard 0.9 (convergence integrated media GmbH)
(*) MMX detected and enabled
(*) DirectFB/GraphicsDevice: MMX Software Rasterizer 0.6 (convergence integrated media GmbH)
(!) DirectFB/core/fbdev: Unsupported pixelformat: rgba 8/0, 8/8, 8/16, 8/24 (32bit)
(!) DirectFB/Core/layers: Setting default/last configuration failed!
(!) DirectFB/Core/layers: Failed to enable primary layer!
(!) DirectFB/Core: Could not initialize 'layers' core!
    --> Not supported!
Creating mouse: Auto
(!) DirectFB/Core: Error during initialization (Not supported!)
(#) DirectFBError [Couldn't create DirectFB subsystem]: Not supported!
[mpeg2video @ 0xaeb750]get_buffer() failed (1 1073741824 2 (nil))
decoding error
2004-04-01 19:32:59 Changing from None to WatchingLiveTV
2004-04-01 19:32:59 Changing from WatchingLiveTV to None

[2]+  Exit 1                  mythfrontend -qws

Any ideas on what could cause this error?

Thanks,
Jarrod



More information about the mythtv-users mailing list