[mythtv-users] Just about there with Actisys IR200 and Digital Cable

Cory Drinkwater cdrinkwa at bctree.com
Fri Aug 27 17:51:43 EDT 2004


Now that I have had even more time with google, it seems that the
"QDateTime" errors that I am seeing are Qt related. Still have nooo idea
where to hunt next though.... Any help would be greatly appreciated.

Ciao

Cory



> Hello All...
>
> I have been successfully using MythTV since 14 and an currently running
> 15.1. I have finally gotten around to trying to configure an Actisys IR200
> to control my Digital Box (Motorola DSR470). I am using a Pundit with a
> PVR-350 running FC1 and atrpms build of well basically everything. I have
> installed a second version of lirc via the instructions at::
> http://members.cox.net/rwraithr/IRBlaster_Howto.txt (kudos to Robert
Wamble
> :) )
> and it works wonderbar from the terminal window, but NOT from inside of
> MythTV. Tried every iteration of the entire path to the script
> "/usr/local/bin/change_channel.csh" in mythtvsetup for the card, but no
go.
>
> I have poured over the lists and have found some similar problems here:
>
http://www.gossamer-threads.com/lists/mythtv/users/71767?search_string=perl%20path;#71767
> which lead me down the road of Perl, but I cannot seem to fix the problem.
> When I start Mythfrontend from a terminal window, I see output like this
> when Myth tries to change the channel using the script:
>
> ----(SNIP)----
> Input #0, mpeg, from 'rbuf://127.0.0.1:6543/myth/cache/ringbuf1.nuv':
>  Stream #0.0: Video: mpeg2video, 720x480, 29.97 fps
>  Stream #0.1: Audio: mp2, 48000 Hz, stereo, 384 kb/s
> 2004-08-25 19:47:05 Opening OSS audio device '/dev/dsp'.
> 2004-08-25 19:47:05 Audio fragment size: 4096
> 2004-08-25 19:47:05 Using XV port 56
> 2004-08-25 19:47:05 Changing from None to WatchingLiveTV
> 2004-08-25 19:47:22 Waited too long for ringbuffer pause..
> QDateTime::fromString: Parameter out of range
> QDateTime::fromString: Parameter out of range
> QDateTime::fromString: Parameter out of range
> 2004-08-25 19:47:25 Waited too long for decoder to pause
> 2004-08-25 19:47:26 Waited too long for decoder to pause
> QDateTime::fromString: Parameter out of range
> QDateTime::fromString: Parameter out of range
> QDateTime::fromString: Parameter out of range
> 2004-08-25 19:47:28 Waited too long for decoder to pause
> 2004-08-25 19:47:29 Waited too long for decoder to pause
> QDateTime::fromString: Parameter out of range
> QDateTime::fromString: Parameter out of range
> QDateTime::fromString: Parameter out of range
> 2004-08-25 19:47:34 Waited too long for ringbuffer pause..
> ----(SNIP)----
>
> So, I am by no means a Perl guy, but it seems like Myth is actually
kicking
> off the script (which is good) and then something is hooping, giving the
> QDateTime errors (which is not so good)... but only inside of Myth.
> Thoughts? I have been beating my skull for days now and need some
direction.
> Thanks a bunch for the help!
>
> Cheers!
>
> Cory
>
> _______________________________________________
> mythtv-users mailing list
> mythtv-users at mythtv.org
> http://mythtv.org/cgi-bin/mailman/listinfo/mythtv-users
>



More information about the mythtv-users mailing list