[mythtv-users] Still can't edit recordings with PVR 250 card

Mathias Wennberg mathias.wennberg at gavle.to
Tue Jun 8 16:53:12 EDT 2004


Hello

Sorry for once again take up a questions about editing recordings but I still 
haven't managed to make it work. I simply can't get my PVR 250 recording to 
display a edit bar, even in the latest 0.15.1 (which is completly rebuilt).
I have tried the OSD and the E button. Nothing works.

In an older post I found that this should appear when I watch a recording 
"Position map found". However, this don't seam to appear. Should it appear 
and how does I in such case make it appear?
The strange thing is that it doesn't appear on my WinTV recording EITHER - and 
I can edit these recordings.

This is the output from mythfrontend whith a PVR recording:
Input #0, mpeg, from '/video/store//8_20040604003000_20040604010000.nuv':
  Stream #0.0: Video: mpeg2video, 480x576, 25.00 fps
  Stream #0.1: Audio: mp2, 48000 Hz, stereo, 384 kb/s
2004-06-08 22:46:51 Opening OSS audio device '/dev/dsp'.
2004-06-08 22:46:51 Audio fragment size: 4096
2004-06-08 22:46:51 Using XV port 105
2004-06-08 22:46:51 Changing from None to WatchingPreRecorded

This is the output from an Wintv (editable) recording:
Input #0, mpeg, from '/video/store//5_20040515125000_20040515132500.nuv':
  Stream #0.0: Video: mpeg2video, 480x576, 25.00 fps
  Stream #0.1: Audio: mp2, 48000 Hz, stereo, 384 kb/s
2004-06-08 22:49:28 Opening OSS audio device '/dev/dsp'.
2004-06-08 22:49:28 Audio fragment size: 4096
2004-06-08 22:49:28 Using XV port 105
2004-06-08 22:49:28 Changing from None to WatchingPreRecorded

Any suggestions deeply appreciated. 
Best regards
/Mathias

PS. When I built 0.15.1 I rebuilt each and every Mythtv program and the IVTV 
drivers. Do I need to rebuild any more to make editing work? Mplayer?



More information about the mythtv-users mailing list