[mythtv-users] Error after datadirect update

rranjan at muz.servequake.com rranjan at muz.servequake.com
Sun May 30 01:47:15 EDT 2004


Anyway got it fixed.....just had to restart my backend...

thanks,



> I updated to datadirect from XMLTV and now my live TV is gone.Here is what
> I get when I start mythTVfront end.I know I have messed something, but am
> not sure what.
>
>
>
> ---------------------------------------------
>
> 2004-05-29 23:08:02 mythfrontend version: 0.15.20040525-1 www.mythtv.org
> 2004-05-29 23:08:02 Enabled verbose msgs : important general
> 2004-05-29 23:08:05 Registering Internal as a media playback plugin.
> 2004-05-29 23:08:05 Registering MythDVD DVD Media Handler as a media
> handler
>
> 2004-05-29 23:08:05 Registering MythDVD VCD Media Handler as a media
> handler
> 2004-05-29 23:08:06 Registering MythMusic Media Handler as a media handler
> 2004-05-29 23:08:16 Connecting to backend server: 127.0.0.1:6543 (try 1 of
> 5)
> 2004-05-29 23:08:16 Using protocol version 8
> 2004-05-29 23:08:16 Using protocol version 8
> 2004-05-29 23:08:38 Using protocol version 8
> Input #0, mpeg, from 'rbuf://127.0.0.1:6543/video/buffer/ringbuf1.nuv':
>   Stream #0.0: Video: mpeg2video, 480x480, 29.97 fps
>   Stream #0.1: Audio: mp2, 48000 Hz, stereo, 384 kb/s
> 2004-05-29 23:08:42 Opening OSS audio device '/dev/dsp'.
> 2004-05-29 23:08:42 Audio fragment size: 4096
> 2004-05-29 23:08:42 Using XV port 105
> 2004-05-29 23:08:43 Changing from None to WatchingLiveTV
> Init found nVidia polling
> 2004-05-29 23:08:50 Waited too long for ringbuffer pause..
> 2004-05-29 23:08:51 Waited too long for ringbuffer pause..
> 2004-05-29 23:08:51 Changing from WatchingLiveTV to None
> 2004-05-29 23:08:51 Changing from None to None
> Not removing top-most widget
> ---------------------------------------
>
> thanks
> _______________________________________________
> mythtv-users mailing list
> mythtv-users at mythtv.org
> http://mythtv.org/cgi-bin/mailman/listinfo/mythtv-users
>



More information about the mythtv-users mailing list