[mythtv-users] Problem with nuvexport

Julian Tyler lovely at crm114.net
Sun Sep 12 13:43:36 EDT 2004


yeah i'm having the extactly same problems. (Nobody replied to me)

So i wonder if anybody actually knows anything about this about this.

On 10/09/2004, at 9:53 PM, Mike Ryan wrote:

> All
>
> When I use nuvexport from mythtv, I find that the resulting wmv or avi 
> file
> (from Windows Media and DivX respectively) works ok buit with some 
> audio
> syncing issues. Also, although I am able to view the file, I can't jump
> forwards - is there a better way of me exporting programs from Myth to 
> divx or
> am I just doing this wrong??
>
> I'm running Fedora Core 2 with Kernel 2.6.7-1. MythTV is version 
> 0.15.20040528-1
> and the latest version of nuvexport.
>
> If it helps, here's an example of me running nuvexport
>
> Cheers
>
> Mike
>
> What would you like to do with your recording?
>
>          Show:  Ali G in Da USAiii
>       Episode:  Untitled
>       Airtime:  9/3, 11:05 PM
>
>   1. Export to SVCD
>   2. Extract .nuv and .sql
>   3. Export DivX
>   4. Export WMV
>   5. Export to VCD
>   6. Export to DVD
>   7. Export OGM (CLI support) (disabled)
>   8. Export to MP3
>   9. Transcode export to XviD
>  10. Transcode export to VCD
>  11. Transcode export to SVCD
>
>   r. Return to episode menu
>   q. Quit
>
> Choose a function:  4
> Where would you like to export the files to? [.]
> Output filename?  [Ali G in Da USAiii.wmv]
> No cutlist found.  Hopefully this means that you already removed the
> commercials.
> Audio bitrate? [64]
> Video bitrate? [256]
> Horizontal resolution? [320]
> Vertical resolution? [240]
> [tcprobe] MPEG packetized elementary stream (PES)
> 2004-09-10 12:52:53 Transcoding from
> /video/8324_20040903230500_20040903233500.nuv to
> /video/8324_20040903230500_20040903233500.nuv.tmp
> 2004-09-10 12:52:53 Created video fifo: /tmp/fifodir.10457/vidout
> 2004-09-10 12:52:53 Created audio fifo: /tmp/fifodir.10457/audout
> 2004-09-10 12:52:53 Video 704x576 at 25fps Audio rate: 48000
> 2004-09-10 12:52:53 Created fifos. Waiting for connection.
> 2004-09-10 12:52:53 Audio is 463ms ahead of video at # 3
> 2004-09-10 12:52:53 Audio is 423ms ahead of video at # 5
> 2004-09-10 12:52:53 Audio is 383ms ahead of video at # 7
> 2004-09-10 12:52:53 Audio is 343ms ahead of video at # 9
> 2004-09-10 12:52:53 Audio is 303ms ahead of video at # 11
> 2004-09-10 12:52:53 Audio is 263ms ahead of video at # 13
> 2004-09-10 12:52:53 Audio is 223ms ahead of video at # 15
> 2004-09-10 12:52:53 Audio is 183ms ahead of video at # 17
> 2004-09-10 12:52:53 Audio is 143ms ahead of video at # 19
> 2004-09-10 12:52:53 Audio is 103ms ahead of video at # 21
> 2004-09-10 12:52:53 Audio is 63ms ahead of video at # 23
> 2004-09-10 12:52:53 Audio is 47ms ahead of video at # 26
> Waiting for mythtranscode to set up the fifos.
> Input #0, s16le, from '/tmp/fifodir.10457/audout':
>   Duration: N/A, bitrate: N/A
>   Stream #0.0: Audio: pcm_s16le, 48000 Hz, stereo, 1536 kb/s
> Input #1, rawvideo, from '/tmp/fifodir.10457/vidout':
>   Duration: N/A, bitrate: N/A
>   Stream #1.0: Video: rawvideo, yuv420p, 704x576, 25.00 fps
> Output #0, asf, to 'Ali G in Da USAiii.wmv':
>   Stream #0.0: Video: msmpeg4, 320x240, 25.00 fps, q=2-31, 256 kb/s
>   Stream #0.1: Audio: mp3, 48000 Hz, stereo, 64 kb/s
> Stream mapping:
>   Stream #1.0 -> #0.0
>   Stream #0.0 -> #0.1
> Press [q] to stop encoding
> frame=   40 q=11.0 size=     160kB time=1.6 bitrate= 839.8kbits/s
>
>
>
> _______________________________________________
> mythtv-users mailing list
> mythtv-users at mythtv.org
> http://mythtv.org/cgi-bin/mailman/listinfo/mythtv-users
-------------- next part --------------
A non-text attachment was scrubbed...
Name: smime.p7s
Type: application/pkcs7-signature
Size: 2363 bytes
Desc: not available
Url : http://mythtv.org/pipermail/mythtv-users/attachments/20040913/02c67e75/smime.bin


More information about the mythtv-users mailing list