[mythtv-users] Can't use cutlist and transcode tv recordings after upgrade to 0.22

Anders Pedersen anp at post4.tele.dk
Thu Feb 25 20:50:24 UTC 2010


Hi

After upgrade to mythtv version 0.22 I can't use cutlist and transcode
tv recordings :-(.

The problem is "displace" in the cutlist. When I create a cutlist and
remove the commercial at the end of a recording, then after transcodning
(when watching the recording at the end) I see commercial, but some of
the recording before the commercial is missing.

When the cutlist is created I use "keyframe".

The capture card is PVR-150.

I do not delete files slowly.

The recording profile is "High Quality". (720 * 576)
The transcode profile is "High Quality". (Lossless transcoding)



This is form mythbackend.log:

2010-02-25 09:15:53.041 JobQueue: Transcode Starting for 4-Stjerners
Middag "Hos Anne Lindfjeld. Episode 19": High Quality (2.5 GB)
2010-02-25 09:15:53.174 Using runtime prefix = /usr
2010-02-25 09:15:53.217 Using configuration directory
= /home/mythtv/.mythtv
2010-02-25 09:15:53.250 Empty LocalHostName.
2010-02-25 09:15:53.284 Using localhost value of localhost
2010-02-25 09:15:53.322 New DB connection, total: 1
2010-02-25 09:15:53.354 Connected to database 'mythconverg' at host:
localhost
2010-02-25 09:15:53.384 Closing DB connection named 'DBManager0'
2010-02-25 09:15:53.418 Connected to database 'mythconverg' at host:
localhost
2010-02-25 09:15:53.452 Enabled verbose msgs: important
2010-02-25 09:15:53.487 New DB connection, total: 2
2010-02-25 09:15:53.520 Connected to database 'mythconverg' at host:
localhost
2010-02-25 09:15:53.556 Transcoding
from /video/mythtv/recordings/21_20100224185900.mpg
to /video/mythtv/recordings/21_20100224185900.mpg.tmp
2010-02-25 09:15:53.641 MythContext: Connecting to backend server:
localhost:6543 (try 1 of 1)
2010-02-25 09:15:53.687 Using protocol version 50
2010-02-25 09:15:53.719 MainServer::ANN Monitor
2010-02-25 09:15:53.752 adding: localhost as a client (events: 0)
2010-02-25 09:15:53.786 MainServer::ANN Monitor
2010-02-25 09:15:53.819 adding: localhost as a client (events: 1)
2010-02-25 09:15:54.067 AFD: Opened codec 0x8dd4440, id(MPEG2VIDEO)
type(Video)
2010-02-25 09:15:54.097 AFD: codec MP2 has 2 channels
2010-02-25 09:15:54.130 AFD: Opened codec 0x8dddec0, id(MP2) type(Audio)
2010-02-25 09:15:54.196 Honoring the cutlist while transcoding
2010-02-25 09:15:54.220 Cutlist        : 0-2644,20503-32719
2010-02-25 09:15:54.242 Original Length: 63192 frames
2010-02-25 09:15:54.264 New Length     : 48332 frames
2010-02-25 09:15:54.306 TriggeredConfigurationGroup::triggerChanged(MP3)
Error:Failed to locate value in triggerMap
2010-02-25 09:15:54.324 Switching to MPEG-2 transcoder.
2010-02-25 09:15:54.360
Opening /video/mythtv/recordings/21_20100224185900.mpg
2010-02-25 09:15:54.384 Input #0, mpeg, from
'/video/mythtv/recordings/21_20100224185900.mpg':
2010-02-25 09:15:54.398   Duration: 09:40:27.22, start: 0.196122,
bitrate: 618 kb/s
2010-02-25 09:15:54.421     Stream #0.0[0x1e0]: Video: mpeg2video,
yuv420p, 720x576 [PAR 64:45 DAR 16:9], 6000 kb/s, 25 tbr, 90k tbn, 50
tbc
2010-02-25 09:15:54.443     Stream #0.1[0x69]: Data: 0x0000
2010-02-25 09:15:54.465     Stream #0.2[0x1c0]: Audio: mp2, 48000 Hz, 2
channels, s16, 384 kb/s
2010-02-25 09:15:54.488 Skipping unsupported codec 2 on stream 1
2010-02-25 09:15:54.512 #0 PTS:00:00:00.400 Delta: 0.0ms queue: 13
2010-02-25 09:15:54.532 #2 PTS:00:00:00.388 Delta: 12.3111ms queue: 2
2010-02-25 09:15:55.100 Converting frame #3 from B to I 
2010-02-25 09:15:55.147 Converting frame #4 from B to I 
2010-02-25 09:15:55.181 Converting frame #5 from P to I 
Mux rate: 6,49 Mbit/s
2010-02-25 09:16:07.150 Converting frame #6 from B to I 
2010-02-25 09:16:07.215 Converting frame #7 from B to I 
2010-02-25 09:16:07.248 Converting frame #8 from P to I 
2010-02-25 09:16:13.877 Converting frame #6 from B to I 
2010-02-25 09:16:13.928 Converting frame #7 from B to I 
2010-02-25 09:16:13.962 Converting frame #8 from P to I 
2010-02-25 09:17:08.300 Generating Keyframe Index
2010-02-25 09:17:09.390
Opening /video/mythtv/recordings/21_20100224185900.mpg.tmp
2010-02-25 09:17:09.943 Input #0, mpeg, from
'/video/mythtv/recordings/21_20100224185900.mpg.tmp':
2010-02-25 09:17:09.991   Duration: 00:57:04.52, start: 0.292311,
bitrate: 4960 kb/s
2010-02-25 09:17:10.013     Stream #0.0[0x1e0]: Video: mpeg2video,
yuv420p, 720x576 [PAR 64:45 DAR 16:9], 6000 kb/s, 25 tbr, 90k tbn, 50
tbc
2010-02-25 09:17:10.046     Stream #0.1[0x1c0]: Audio: mp2, 48000 Hz, 2
channels, s16, 384 kb/s
2010-02-25 09:17:36.492 Transcode Completed
2010-02-25 09:17:38.391
Transcoding /video/mythtv/recordings/21_20100224185900.mpg done
2010-02-25 09:17:38.497 JobQueue: Transcode Finished: 4-Stjerners Middag
"Hos Anne Lindfjeld. Episode 19": High Quality (2.0 GB)

In what direction must I look ?

I can reacreate the error. It goes wroung every time.

Regards
Anders



More information about the mythtv-users mailing list