Astra 28.2E

From MythTV Official Wiki
Jump to: navigation, search

Transponder details

dvb-s/Astra-28.2E

# Astra 28.2E SDT info service transponder
# freq pol sr fec
S 10773000 H 22000000 5/6
S 11778000 V 27500000 2/3

dvb-s/Eurobird1-28.5E

# Eurobird 28.5E SDT info service transponder
# freq pol sr fec
S 11679000 V 27500000 2/3

STS2 2-way splitter F-conn 2 DC pass

With a splitter fitted, you will be able to watch and record any two channels from any ONE of the four lists. You will not be able to watch and record simultaneously channels from two of the lists.

DVB-S

BBC 1 London - 6301

  Stream #0.0[0x1388], 1/90000: Video: mpeg2video, yuv420p, 720x576, 1/25, 7980 kb/s, 25.00 fps(r)
  Stream #0.1[0x1389](eng), 1/90000: Audio: mp2, 48000 Hz, stereo, 256 kb/s
  Stream #0.2[0x138a](NAR), 1/90000: Audio: mp2, 48000 Hz, stereo, 256 kb/s
  Stream #0.3[0x138b](eng), 1/90000: Data: 0x0000
  Stream #0.4[0x138c](eng), 1/90000: Subtitle: dvbsub

BBC 2 England - 6302

  Duration: 00:39:53.8, start: 58534.718178, bitrate: 6810 kb/s
  Stream #0.0[0x13ec], 1/90000: Video: mpeg2video, yuv420p, 720x576, 1/25, 7980 kb/s, 25.00 fps(r)
  Stream #0.1[0x13ed](eng), 1/90000: Audio: mp2, 48000 Hz, stereo, 256 kb/s
  Stream #0.2[0x13ee](NAR), 1/90000: Audio: mp2, 48000 Hz, stereo, 256 kb/s
  Stream #0.3[0x13ef](eng), 1/90000: Data: 0x0000
  Stream #0.4[0x13f0](eng), 1/90000: Subtitle: dvbsub

BBC NEWS 24 - 6304

  Duration: 00:02:21.6, start: 44472.584122, bitrate: 4294 kb/s
  Stream #0.0[0x1518], 1/90000: Video: mpeg2video, yuv420p, 720x576, 1/25, 7980 kb/s, 25.00 fps(r)
  Stream #0.1[0x1519](eng), 1/90000: Audio: mp2, 48000 Hz, stereo, 192 kb/s
  Stream #0.2[0x151b](eng), 1/90000: Data: 0x0000

BBC THREE - 6319

  Duration: 00:44:25.5, start: 39669.490156, bitrate: 6583 kb/s
  Stream #0.0[0x1450], 1/90000: Video: mpeg2video, yuv420p, 720x576, 1/25, 7980 kb/s, 25.00 fps(r)
  Stream #0.1[0x1451](eng), 1/90000: Audio: mp2, 48000 Hz, stereo, 256 kb/s
  Stream #0.2[0x1452](NAR), 1/90000: Audio: mp2, 48000 Hz, stereo, 256 kb/s
  Stream #0.3[0x1453](eng), 1/90000: Data: 0x0000
  Stream #0.4[0x1454](eng), 1/90000: Subtitle: dvbsub


BBC HD - 6940

  Duration: 00:04:04.6, start: 83689.710978, bitrate: 17570 kb/s
  Stream #0.0[0x90e], 1/90000: Video: h264, yuv420p, 1440x1080, 1/25, 500 kb/s, 25.00 fps(r)
  Stream #0.1[0x910](NAR), 1/90000: Audio: mp2, 48000 Hz, stereo, 256 kb/s
  Stream #0.2[0x911](eng), 1/90000: Data: 0x0000
  Stream #0.3[0x90f](eng), 1/90000: Audio: ac3, 48000 Hz, stereo, 384 kb/s

Film+1 - 8330

  Duration: 02:16:54.1, start: 50993.185144, bitrate: 4689 kb/s
  Stream #0.0[0x919], 1/90000: Video: mpeg2video, yuv420p, 544x576, 1/25, 10000 kb/s, 25.00 fps(r)
  Stream #0.1[0x91a](eng), 1/90000: Audio: mp2, 48000 Hz, stereo, 192 kb/s
  Stream #0.2[0x91b](NAR), 1/90000: Audio: mp2, 48000 Hz, stereo, 128 kb/s
  Stream #0.3[0x91c](eng), 1/90000: Data: 0x0000

Film4 - 8335

  Duration: 02:24:54.9, start: 11977.783833, bitrate: 4944 kb/s
  Stream #0.0[0x908], 1/90000: Video: mpeg2video, yuv420p, 544x576, 1/25, 10000 kb/s, 25.00 fps(r)
  Stream #0.1[0x909](eng), 1/90000: Audio: mp2, 48000 Hz, stereo, 192 kb/s
  Stream #0.2[0x942](NAR), 1/90000: Audio: mp2, 48000 Hz, stereo, 128 kb/s
  Stream #0.3[0x90a](eng), 1/90000: Data: 0x0000

ITV1 WEST - 10030

  Duration: 01:06:53.5, start: 54023.579189, bitrate: 7444 kb/s
  Stream #0.0[0x928], 1/90000: Video: mpeg2video, yuv420p, 544x576, 1/25, 10000 kb/s, 25.00 fps(r)
  Stream #0.1[0x929](eng), 1/90000: Audio: mp2, 48000 Hz, stereo, 192 kb/s
  Stream #0.2[0x92a](eng), 1/90000: Data: 0x0000

ITV2 - 10070

  Duration: 02:41:58.5, start: 3682.229033, bitrate: 6807 kb/s
  Stream #0.0[0x930], 1/90000: Video: mpeg2video, yuv420p, 544x576, 1/25, 10000 kb/s, 25.00 fps(r)
  Stream #0.1[0x932](eng), 1/90000: Audio: mp2, 48000 Hz, stereo, 192 kb/s
  Stream #0.2[0x933](NAR), 1/90000: Audio: mp2, 48000 Hz, stereo, 128 kb/s
  Stream #0.3[0x935](eng), 1/90000: Data: 0x0000

ITV4 - 10072

  Duration: 00:39:42.6, start: 71332.847411, bitrate: 7923 kb/s
  Stream #0.0[0x933], 1/90000: Video: mpeg2video, yuv420p, 544x576, 1/25, 10000 kb/s, 25.00 fps(r)
  Stream #0.1[0x934](eng), 1/90000: Audio: mp2, 48000 Hz, stereo, 192 kb/s
  Stream #0.2[0x935](eng), 1/90000: Data: 0x0000

Fashion TV - 52007

  Stream #0.0[0x901], 1/90000: Video: mpeg2video, yuv420p, 480x576, 1/25, 10000 kb/s, 25.00 fps(r)
  Stream #0.1[0x902](eng), 1/90000: Audio: mp2, 48000 Hz, stereo, 128 kb/s

B4 - 52300

  Stream #0.0[0x90e], 1/90000: Video: mpeg2video, yuv420p, 544x576, 1/25, 9000 kb/s, 25.00 fps(r)
  Stream #0.1[0x90f](eng), 1/90000: Audio: mp2, 48000 Hz, stereo, 192 kb/s

MinX - 52335

  Stream #0.0[0x90a], 1/90000: Video: mpeg2video, yuv420p, 544x576, 1/25, 9000 kb/s, 25.00 fps(r)
  Stream #0.1[0x90b](eng), 1/90000: Audio: mp2, 48000 Hz, stereo, 192 kb/s

Golf Channel - 52408

  Stream #0.0[0x90f], 1/90000: Video: mpeg2video, yuv420p, 480x576, 1/25, 4980 kb/s, 25.00 fps(r)
  Stream #0.1[0x910], 1/90000: Audio: mp2, 48000 Hz, stereo, 128 kb/s

Zone Horror - 52105

  Duration: 02:06:54.2, start: 13215.840456, bitrate: 1567 kb/s
  Stream #0.0[0x909], 1/90000: Video: mpeg2video, yuv420p, 544x576, 1/25, 10000 kb/s, 25.00 fps(r)
  Stream #0.1[0x90a](eng), 1/90000: Audio: mp2, 48000 Hz, stereo, 128 kb/s

LUXE TV HD - 54206

  Duration: 00:02:12.9, start: 61525.725900, bitrate: 6241 kb/s
  Stream #0.0[0x90f], 1/90000: Video: h264, yuv420p, 1280x1080, 1/25, 500 kb/s, 25.00 fps(r)
  Stream #0.1[0x910](eng), 1/90000: Audio: mp2, 48000 Hz, stereo, 160 kb/s
  Stream #0.2[0x914](eng), 1/90000: Audio: ac3, 48000 Hz, stereo, 384 kb/s