Canberra

From MythTV Official Wiki
Jump to: navigation, search

DVB-T

Some DVB-T snapshots taken in Canberra, Australia on 25 Apr 07.

ABC TV Canberra - 2

  Stream #0.0[0x200], 1/90000: Video: mpeg2video, yuv420p, 720x576, 1/25, 15000 kb/s, 25.00 fps(r)
  Stream #0.1[0x28a](eng), 1/90000: Audio: mp2, 48000 Hz, stereo, 256 kb/s
  Stream #0.2[0x294](eng), 1/90000: Audio: ac3, 48000 Hz, stereo, 448 kb/s
  Stream #0.3[0x240](eng), 1/90000: Data: 0x0000

SC10 Canberra - 5

  Stream #0.0[0x161], 1/90000: Video: mpeg2video, yuv420p, 720x576, 1/25, 15000 kb/s, 25.00 fps(r)
  Stream #0.1[0x162](eng), 1/90000: Audio: mp2, 48000 Hz, stereo, 256 kb/s
  Stream #0.2[0x163](eng), 1/90000: Data: 0x0000

PRIME Canberra - 6

  Stream #0.0[0xab4], 1/90000: Video: mpeg2video, yuv420p, 720x576, 1/25, 10000 kb/s, 25.00 fps(r)
  Stream #0.1[0xab5](eng), 1/90000: Audio: mp2, 48000 Hz, stereo, 256 kb/s
  Stream #0.2[0xab9](eng), 1/90000: Data: 0x0000
  Stream #0.3[0xaba], 1/90000: Video: mpeg2video, 90000.00 fps(r)

WIN TV Canberra - 8

  Stream #0.0[0x21], 1/90000: Video: mpeg2video, yuv420p, 720x576, 1/25, 6900 kb/s, 25.00 fps(r)
  Stream #0.1[0x24](ENG), 1/90000: Audio: mp2, 48000 Hz, stereo, 384 kb/s
  Stream #0.2[0x2f](ENG), 1/90000: Data: 0x0000

ABC HDTV - 20

  Stream #0.0[0x90a], 1/90000: Video: mpeg2video, yuv420p, 1280x720, 1/50, 9600 kb/s, 50.00 fps(r)
  Stream #0.1[0x90c](eng), 1/90000: Data: 0x0000
  Stream #0.2[0x90b](eng), 1/90000: Audio: ac3, 48000 Hz, stereo, 448 kb/s

ABC2 - 22

  Stream #0.0[0x903], 1/90000: Video: mpeg2video, yuv420p, 720x576, 1/25, 15000 kb/s, 25.00 fps(r)
  Stream #0.1[0x904](eng), 1/90000: Audio: mp2, 48000 Hz, stereo, 256 kb/s
  Stream #0.2[0x906](eng), 1/90000: Data: 0x0000
  Stream #0.3[0x1770], 1/90000: Data: 0x00

SBS HD - 30

  Stream #0.0[0x66](eng), 1/90000: Video: mpeg2video, yuv420p, 720x576, 1/50, 7650 kb/s, 50.00 fps(r)
  Stream #0.1[0x67](eng), 1/90000: Audio: mp2, 48000 Hz, stereo, 224 kb/s
  Stream #0.2[0x29](eng), 1/90000: Data: 0x0000

SC10 - 50

High Definition demonstration 1080i x 1440

  Stream #0.0[0x6af], 1/90000: Video: mpeg2video, yuv420p, 1440x1080, 1/25, 14000 kb/s, 25.00 fps(r)
  Stream #0.1[0x163](eng), 1/90000: Data: 0x0000
  Stream #0.2[0x6b0](eng), 1/90000: Audio: ac3, 48000 Hz, stereo, 384 kb/s

PRIME HD - 60

  Stream #0.0[0x11f8], 1/90000: Video: mpeg2video, yuv420p, 720x576, 1/50, 90000 kb/s, 50.00 fps(r)
  Stream #0.1[0x11f9](eng), 1/90000: Audio: mp2, 48000 Hz, stereo, 256 kb/s
  Stream #0.2[0x11fd](eng), 1/90000: Data: 0x0000
  Stream #0.3[0x11fa](eng), 1/90000: Audio: ac3, 48000 Hz, stereo, 256 kb/s

WIN TV HD - 80

  Stream #0.0[0x81], 1/90000: Video: mpeg2video, yuv420p, 1440x1080, 1/25, 11000 kb/s, 25.00 fps(r)
  Stream #0.1[0x1f41](ENG), 1/90000: Audio: ac3, 48000 Hz, stereo, 448 kb/s