London

From MythTV Official Wiki
Revision as of 08:56, 13 May 2007 by Pos (talk | contribs) (Initial observations)

(diff) ← Older revision | Latest revision (diff) | Newer revision → (diff)
Jump to: navigation, search

DVB-T

Some DVB-T observations taken in London on 12 May 07

scan dvb-t/uk-CrystalPalace

Network Name 'Crystal Palace'
dumping lists (35 services)
BBC ONE:505833330:INVERSION_AUTO:BANDWIDTH_8_MHZ:FEC_3_4:FEC_3_4:QAM_16:TRANSMISSION_MODE_2K:GUARD_INTERVAL_1_32:HIERARCHY_NONE:600:601:4164
BBC TWO:505833330:INVERSION_AUTO:BANDWIDTH_8_MHZ:FEC_3_4:FEC_3_4:QAM_16:TRANSMISSION_MODE_2K:GUARD_INTERVAL_1_32:HIERARCHY_NONE:610:611:4228
BBC THREE:505833330:INVERSION_AUTO:BANDWIDTH_8_MHZ:FEC_3_4:FEC_3_4:QAM_16:TRANSMISSION_MODE_2K:GUARD_INTERVAL_1_32:HIERARCHY_NONE:0:0:4351
BBC NEWS 24:505833330:INVERSION_AUTO:BANDWIDTH_8_MHZ:FEC_3_4:FEC_3_4:QAM_16:TRANSMISSION_MODE_2K:GUARD_INTERVAL_1_32:HIERARCHY_NONE:640:641:4415
BBCi:505833330:INVERSION_AUTO:BANDWIDTH_8_MHZ:FEC_3_4:FEC_3_4:QAM_16:TRANSMISSION_MODE_2K:GUARD_INTERVAL_1_32:HIERARCHY_NONE:0:0:4479
CBBC Channel:505833330:INVERSION_AUTO:BANDWIDTH_8_MHZ:FEC_3_4:FEC_3_4:QAM_16:TRANSMISSION_MODE_2K:GUARD_INTERVAL_1_32:HIERARCHY_NONE:620:621:4671
tvtv DIGITAL:578166670:INVERSION_AUTO:BANDWIDTH_8_MHZ:FEC_3_4:FEC_3_4:QAM_16:TRANSMISSION_MODE_2K:GUARD_INTERVAL_1_32:HIERARCHY_NONE:0:0:23744
Sky Text:578166670:INVERSION_AUTO:BANDWIDTH_8_MHZ:FEC_3_4:FEC_3_4:QAM_16:TRANSMISSION_MODE_2K:GUARD_INTERVAL_1_32:HIERARCHY_NONE:0:0:23680
Virgin Radio:578166670:INVERSION_AUTO:BANDWIDTH_8_MHZ:FEC_3_4:FEC_3_4:QAM_16:TRANSMISSION_MODE_2K:GUARD_INTERVAL_1_32:HIERARCHY_NONE:0:1901:23104
Clyde 1:578166670:INVERSION_AUTO:BANDWIDTH_8_MHZ:FEC_3_4:FEC_3_4:QAM_16:TRANSMISSION_MODE_2K:GUARD_INTERVAL_1_32:HIERARCHY_NONE:0:1801:23040
Premier Radio:578166670:INVERSION_AUTO:BANDWIDTH_8_MHZ:FEC_3_4:FEC_3_4:QAM_16:TRANSMISSION_MODE_2K:GUARD_INTERVAL_1_32:HIERARCHY_NONE:0:1701:22976
talkSPORT:578166670:INVERSION_AUTO:BANDWIDTH_8_MHZ:FEC_3_4:FEC_3_4:QAM_16:TRANSMISSION_MODE_2K:GUARD_INTERVAL_1_32:HIERARCHY_NONE:0:1101:22592
smileTV:578166670:INVERSION_AUTO:BANDWIDTH_8_MHZ:FEC_3_4:FEC_3_4:QAM_16:TRANSMISSION_MODE_2K:GUARD_INTERVAL_1_32:HIERARCHY_NONE:0:0:22400
E4+1:578166670:INVERSION_AUTO:BANDWIDTH_8_MHZ:FEC_3_4:FEC_3_4:QAM_16:TRANSMISSION_MODE_2K:GUARD_INTERVAL_1_32:HIERARCHY_NONE:501:502:22336
UKTV History:578166670:INVERSION_AUTO:BANDWIDTH_8_MHZ:FEC_3_4:FEC_3_4:QAM_16:TRANSMISSION_MODE_2K:GUARD_INTERVAL_1_32:HIERARCHY_NONE:401:402:22272
SKY THREE:578166670:INVERSION_AUTO:BANDWIDTH_8_MHZ:FEC_3_4:FEC_3_4:QAM_16:TRANSMISSION_MODE_2K:GUARD_INTERVAL_1_32:HIERARCHY_NONE:301:302:22208
Sky Spts News:578166670:INVERSION_AUTO:BANDWIDTH_8_MHZ:FEC_3_4:FEC_3_4:QAM_16:TRANSMISSION_MODE_2K:GUARD_INTERVAL_1_32:HIERARCHY_NONE:201:202:22144
Sky News:578166670:INVERSION_AUTO:BANDWIDTH_8_MHZ:FEC_3_4:FEC_3_4:QAM_16:TRANSMISSION_MODE_2K:GUARD_INTERVAL_1_32:HIERARCHY_NONE:101:102:22080
ITV2 +1:537833330:INVERSION_AUTO:BANDWIDTH_8_MHZ:FEC_3_4:FEC_3_4:QAM_16:TRANSMISSION_MODE_2K:GUARD_INTERVAL_1_32:HIERARCHY_NONE:601:602:27072
4TVinteractive:537833330:INVERSION_AUTO:BANDWIDTH_8_MHZ:FEC_3_4:FEC_3_4:QAM_16:TRANSMISSION_MODE_2K:GUARD_INTERVAL_1_32:HIERARCHY_NONE:0:0:27008
Q:537833330:INVERSION_AUTO:BANDWIDTH_8_MHZ:FEC_3_4:FEC_3_4:QAM_16:TRANSMISSION_MODE_2K:GUARD_INTERVAL_1_32:HIERARCHY_NONE:0:1901:26688
Magic:537833330:INVERSION_AUTO:BANDWIDTH_8_MHZ:FEC_3_4:FEC_3_4:QAM_16:TRANSMISSION_MODE_2K:GUARD_INTERVAL_1_32:HIERARCHY_NONE:0:1801:26624
The Hits Radio:537833330:INVERSION_AUTO:BANDWIDTH_8_MHZ:FEC_3_4:FEC_3_4:QAM_16:TRANSMISSION_MODE_2K:GUARD_INTERVAL_1_32:HIERARCHY_NONE:0:1701:26560
BBC World Sv.:537833330:INVERSION_AUTO:BANDWIDTH_8_MHZ:FEC_3_4:FEC_3_4:QAM_16:TRANSMISSION_MODE_2K:GUARD_INTERVAL_1_32:HIERARCHY_NONE:0:1601:26496
oneword:537833330:INVERSION_AUTO:BANDWIDTH_8_MHZ:FEC_3_4:FEC_3_4:QAM_16:TRANSMISSION_MODE_2K:GUARD_INTERVAL_1_32:HIERARCHY_NONE:0:1501:26432
smooth fm:537833330:INVERSION_AUTO:BANDWIDTH_8_MHZ:FEC_3_4:FEC_3_4:QAM_16:TRANSMISSION_MODE_2K:GUARD_INTERVAL_1_32:HIERARCHY_NONE:0:1401:26368
Kerrang!:537833330:INVERSION_AUTO:BANDWIDTH_8_MHZ:FEC_3_4:FEC_3_4:QAM_16:TRANSMISSION_MODE_2K:GUARD_INTERVAL_1_32:HIERARCHY_NONE:0:1301:26304
Smash Hits!:537833330:INVERSION_AUTO:BANDWIDTH_8_MHZ:FEC_3_4:FEC_3_4:QAM_16:TRANSMISSION_MODE_2K:GUARD_INTERVAL_1_32:HIERARCHY_NONE:0:1201:26240
Kiss:537833330:INVERSION_AUTO:BANDWIDTH_8_MHZ:FEC_3_4:FEC_3_4:QAM_16:TRANSMISSION_MODE_2K:GUARD_INTERVAL_1_32:HIERARCHY_NONE:0:1101:26176
Ideal World:537833330:INVERSION_AUTO:BANDWIDTH_8_MHZ:FEC_3_4:FEC_3_4:QAM_16:TRANSMISSION_MODE_2K:GUARD_INTERVAL_1_32:HIERARCHY_NONE:501:502:25920
f tn:537833330:INVERSION_AUTO:BANDWIDTH_8_MHZ:FEC_3_4:FEC_3_4:QAM_16:TRANSMISSION_MODE_2K:GUARD_INTERVAL_1_32:HIERARCHY_NONE:0:0:25856
UKTV Br'tIdeas:537833330:INVERSION_AUTO:BANDWIDTH_8_MHZ:FEC_3_4:FEC_3_4:QAM_16:TRANSMISSION_MODE_2K:GUARD_INTERVAL_1_32:HIERARCHY_NONE:301:302:25792
TMF:537833330:INVERSION_AUTO:BANDWIDTH_8_MHZ:FEC_3_4:FEC_3_4:QAM_16:TRANSMISSION_MODE_2K:GUARD_INTERVAL_1_32:HIERARCHY_NONE:201:202:25728
The HITS:537833330:INVERSION_AUTO:BANDWIDTH_8_MHZ:FEC_3_4:FEC_3_4:QAM_16:TRANSMISSION_MODE_2K:GUARD_INTERVAL_1_32:HIERARCHY_NONE:101:102:25664
Film4:537833330:INVERSION_AUTO:BANDWIDTH_8_MHZ:FEC_3_4:FEC_3_4:QAM_16:TRANSMISSION_MODE_2K:GUARD_INTERVAL_1_32:HIERARCHY_NONE:701:702:27136

BBC ONE - 1

  Stream #0.0[0x258], 1/90000: Video: mpeg2video, yuv420p, 720x576, 1/25, 4350 kb/s, 25.00 fps(r)
  Stream #0.1[0x259](eng), 1/90000: Audio: mp2, 48000 Hz, stereo, 256 kb/s
  Stream #0.2[0x25b](eng), 1/90000: Subtitle: dvbsub
  Stream #0.3[0x25a](eng), 1/90000: Audio: mp3
  Stream #0.4[0x28a], 1/90000: Data: 0x0000
  Stream #0.5[0x28b], 1/90000: Data: 0x0000
  Stream #0.6[0x28c], 1/90000: Data: 0x0000
  Stream #0.7[0x3ed], 1/90000: Data: 0x0000
  Stream #0.8[0x3ee], 1/90000: Data: 0x0000
  Stream #0.9[0x3ef], 1/90000: Data: 0x0000

BBC TWO - 2

  Stream #0.0[0x262], 1/90000: Video: mpeg2video, yuv420p, 720x576, 1/25, 6500 kb/s, 25.00 fps(r)
  Stream #0.1[0x263](eng), 1/90000: Audio: mp2, 48000 Hz, stereo, 256 kb/s
  Stream #0.2[0x265](eng), 1/90000: Subtitle: dvbsub
  Stream #0.3[0x264](eng), 1/90000: Audio: mp3
  Stream #0.4[0x28a], 1/90000: Data: 0x0000
  Stream #0.5[0x28b], 1/90000: Data: 0x0000
  Stream #0.6[0x28c], 1/90000: Data: 0x0000
  Stream #0.7[0x3f0], 1/90000: Data: 0x0000
  Stream #0.8[0x3f1], 1/90000: Data: 0x0000
  Stream #0.9[0x3f2], 1/90000: Data: 0x0000

SKY THREE - 11

  Stream #0.0[0x12d], 1/90000: Video: mpeg2video, yuv420p, 720x576, 1/25, 15000 kb/s, 25.00 fps(r)
  Stream #0.1[0x12e](eng), 1/90000: Audio: mp2, 48000 Hz, stereo, 192 kb/s
  Stream #0.2[0x12f](eng), 1/90000: Subtitle: dvbsub
  Stream #0.3[0x130](eng), 1/90000: Audio: mp3
  Stream #0.4[0x131], 1/90000: Data: 0x0000
  Stream #0.5[0xbc2], 1/90000: Data: 0x0000

The HITS - 18

  Stream #0.0[0x65], 1/90000: Video: mpeg2video, yuv420p, 720x576, 1/25, 15000 kb/s, 25.00 fps(r)
  Stream #0.1[0x66](eng), 1/90000: Audio: mp2, 48000 Hz, stereo, 192 kb/s
  Stream #0.2[0x67](eng), 1/90000: Subtitle: dvbsub
  Stream #0.3[0x69], 1/90000: Data: 0x0000